Софт-Портал

Альбом Awolnation Run Скачать Торрент

Рейтинг: 5.0/5.0 (19 проголосовавших)

Категория: Торрент-файлы

Описание

AWOLNATION - Run (2015) скачать бесплатно и без смс

AWOLNATION - Run (2015)

Проверенно
на вирусы:
БЕЗ ВИРУСОВ


Исполнитель: AWOLNATION
Альбом: Run
Формат: MP3, 320 kbps
Год выпуска: 2015
Страна: USA
Жанр: Indie, Electronic
Продолжительность: 00:54:14
Размер: 124 Mb

Треклист:
01. Run (03:37)
02. Fat Face (03:31)
03. Hollow Moon (Bad Wolf) (04:19)
04. Jailbreak (04:45)
05. KOOKSEVERYWHERE. (03:54)
06. I Am (04:29)
07. Headrest For My Soul (02:06)
08. Dreamers (02:24)
09. Windows (03:37)
10. Holy Roller (03:55)
11. Woman Woman (03:35)
12. Lie Love Live Love (04:29)
13. Like People, Like Plastic (04:27)
14. Drinking Lightning (05:05)

AWOLNATION - Run (2015) скачать бесплатно:

Скачать бесплатно и без СМС:

альбом awolnation run скачать торрент:

  • скачать
  • скачать
  • Другие статьи

    Скачать альбом AWOLNATION - Run (2015) бесплатно

    AWOLNATION - Run (2015)


    Исполнитель: AWOLNATION
    Альбом: Run
    Год выхода: 2015
    Жанр: Indie Rock / Electronic
    Формат / Битрейт: МР3 / 320 kbps
    Размер: 129 Mb
    Время: 00:55:20

    Awolnation (обычно пишется AWOLNATION) — американский коллектив, образовавшийся в 2010 г. исполняющий электронный рок. Основателем коллектива считается Аарон Бруно. До AWOLNATION он был участником Under the Influence of Giants, Hometown Hero и Insurgence. У группы подписан контракт с Red Bull Records, а их первый EP «Back from Earth» вышел на iTunes.
    Группа записала дебютный альбом «Megalithic Symphony» в цифровом формате 15 марта 2011, а 29-го Red Bull Records выпустили диск. Сингл «Sail» взлетел на вершину Billboard Rock Songs, став платиновым в США и дважды платиновым в Канаде.

    Tracklist:
    01. Run
    02. Fat Face
    03. Hollow Moon (Bad Wolf)
    04. Jailbreak
    05. KOOKSEVERYWHERE.
    06. I Am
    07. Headrest For My Soul
    08. Dreamers
    09. Windows
    10. Holy Roller
    11. Woman Woman
    12. Lie Love Live Love
    13. Like People, Like Plastic
    14. Drinking Lightning

    Скачать AWOLNATION - Run (2015)


    Скачать бесплатно AWOLNATION - Run (2015) на высокой скорости и по прямой ссылке !

    «Случайные цитаты»
    Твое обнаженное тело должно принадлежать тому, кто полюбит твою обнаженную душу. © Чарли Чаплин

    Категория: Музыка | Добавил: Zodiak89 | 2 года и 6 месяцев назад

    Так же советуем посмотреть

    Категория: Сборник Исполнитель: VAНазвание диска: Весенние заводные хиты (2015)Жанр: ПопГод выпуска: 2015Кол-во треков: 100Формат | Качество: Mp3 | 256 kbpsВремя звучания: 06:04:33Размер файла: 678 Mb

    Исполнитель: КиноАльбом: Группа кровиГод выпуска: 1989 (1988)Страна: СССРЛейбл: Gold Castle Records (D2-71322)Жанр: РокФормат: FLAC (image+.cue+covers) / MP3 CBR 320 kbpsВремя звуч. 47:30 минК-во треков: 11Размер архива: 297 МБ / 118 МБ (+5%)

    Artist: The AgonistTitle Of Album: Eye of ProvidenceRelease Date: 2015Location: CanadaLabel: Century Media (9984352)Genre: Melodic Death Metal, MetalcoreQuality: FLAC (image+.cue+covers) / MP3 CBR 320 kbpsLength: 58:51 minTracks: 13Total Size: 490 MB / 180 MB (+5%)

    Скачать новый альбом AWOLNATION - Run (2015)

    Полная версия сайта


    AWOLNATION - американский коллектив, образовавшийся в 2010 г. исполняющий электронный рок. Основателем коллектива считается Аарон Бруно. До AWOLNATION он был участником Under the Influence of Giants. Hometown Hero и Insurgence. У группы подписан контракт с Red Bull Records. История AWOLNATION началась, когда Red Bull Records пригласили Аарона Бруно, чтобы предложить ему в безвозмездное пользование студию Los Angeles CA. Там он записал несколько песен, и в конце концов заключил с ними партнёрский контракт, предоставляющий ему возможность записывать то, что он посчитает нужным. Бруно пишет песни в одиночку, а потом показывает их близким друзьям, родственникам или уважаемым лично им артистам, чтобы узнать их мнение. 17 марта 2015 года у AWOLNATION выйдет новый альбом "Run" .

    Исполнитель: AWOLNATION
    Альбом: Run
    Год выпуска: 2015
    Страна: USA
    Жанр: Alternative Rock, Indie
    Продолжительность: 58:13
    Качество: mp3, CBR 320 kbps / FLAC (tracks +.cue +.log)
    Размер: 138 mb / 368 mb

    Треклист:
    01. Run
    02. Fat Face
    03. Hollow Moon (Bad Wolf)
    04. Jailbreak
    05. Kookseverywhere.
    06. I Am
    07. Headrest for My Soul
    08. Dreamers
    09. Windows
    10. Holy Roller
    11. Woman Woman
    12. Lie Love Live Love
    13. Like People, Like Plastic
    14. Drinking Lightning

    Скачать альбом AWOLNATION - Run бесплатно

    Awolnation - Run (2015) FLAC, Lossless - Alternative Rock, Indie, Electronic

    Awolnation - Run (2015) Год: 2015
    Жанр: Alternative Rock, Indie, Electronic
    Лейбл: Red Bull Records
    Каталог#: 84494204161
    Продолжительность: 00:55:22

    Кодек: FLAC
    Битрейт: Lossless
    Тип рипа: tracks+.cue+log

    Треклист:
    01. Run (04:02)
    02. Fat Face (03:33)
    03. Hollow Moon (Bad Wolf) (04:19)
    04. Jailbreak (04:41)
    05. KOOKSEVERYWHERE. (04:07)
    06. I Am (04:34)
    07. Headrest for My Soul (02:08)
    08. Dreamers (02:25)
    09. Windows (03:37)
    10. Holy Roller (03:58)
    11. Woman Woman (03:38)
    12. Lie Love Live Love (04:41)
    13. Like People, Like Plastic (04:31)
    14. Drinking Lightning (05:08)


    TITLE "Run"
    PERFORMER "AWOLNATION"
    CATALOG 0844942041611
    REM GENRE "Alternative Rock, Indie, Electronic"
    REM DATE "2015"
    REM DISCNUMBER 1
    REM TOTALDISCS 1
    REM DISCID C50CFB0E
    REM REPLAYGAIN_ALBUM_GAIN -9.34 dB
    REM REPLAYGAIN_ALBUM_PEAK 1.000000
    FILE "01 - Run.flac" WAVE
    TRACK 01 AUDIO
    TITLE "Run"
    PERFORMER "AWOLNATION"
    ISRC USP6L1400285
    FLAGS DCP
    REM REPLAYGAIN_TRACK_GAIN -8.71 dB
    REM REPLAYGAIN_TRACK_PEAK 1.000000
    INDEX 01 00:00:00
    FILE "02 - Fat Face.flac" WAVE
    TRACK 02 AUDIO
    TITLE "Fat Face"
    PERFORMER "AWOLNATION"
    ISRC USP6L1400286
    FLAGS DCP
    REM REPLAYGAIN_TRACK_GAIN -6.42 dB
    REM REPLAYGAIN_TRACK_PEAK 0.986511
    INDEX 01 00:00:00
    FILE "03 - Hollow Moon (Bad Wolf).flac" WAVE
    TRACK 03 AUDIO
    TITLE "Hollow Moon (Bad Wolf)"
    PERFORMER "AWOLNATION"
    ISRC USP6L1400287
    FLAGS DCP
    REM REPLAYGAIN_TRACK_GAIN -9.41 dB
    REM REPLAYGAIN_TRACK_PEAK 1.000000
    INDEX 01 00:00:00
    FILE "04 - Jailbreak.flac" WAVE
    TRACK 04 AUDIO
    TITLE "Jailbreak"
    PERFORMER "AWOLNATION"
    ISRC USP6L1400294
    FLAGS DCP
    REM REPLAYGAIN_TRACK_GAIN -8.05 dB
    REM REPLAYGAIN_TRACK_PEAK 1.000000
    INDEX 01 00:00:00
    FILE "05 - Kookseverywhere. flac" WAVE
    TRACK 05 AUDIO
    TITLE "KOOKSEVERYWHERE. "
    PERFORMER "AWOLNATION"
    ISRC USP6L1400288
    FLAGS DCP
    REM REPLAYGAIN_TRACK_GAIN -10.09 dB
    REM REPLAYGAIN_TRACK_PEAK 1.000000
    INDEX 01 00:00:00
    FILE "06 - I Am.flac" WAVE
    TRACK 06 AUDIO
    TITLE "I Am"
    PERFORMER "AWOLNATION"
    ISRC USP6L1400289
    FLAGS DCP
    REM REPLAYGAIN_TRACK_GAIN -9.98 dB
    REM REPLAYGAIN_TRACK_PEAK 1.000000
    INDEX 01 00:00:00
    FILE "07 - Headrest For My Soul.flac" WAVE
    TRACK 07 AUDIO
    TITLE "Headrest for My Soul"
    PERFORMER "AWOLNATION"
    ISRC USP6L1400290
    FLAGS DCP
    REM REPLAYGAIN_TRACK_GAIN -5.02 dB
    REM REPLAYGAIN_TRACK_PEAK 0.933075
    INDEX 01 00:00:00
    FILE "08 - Dreamers.flac" WAVE
    TRACK 08 AUDIO
    TITLE "Dreamers"
    PERFORMER "AWOLNATION"
    ISRC USP6L1400292
    FLAGS DCP
    REM REPLAYGAIN_TRACK_GAIN -9.69 dB
    REM REPLAYGAIN_TRACK_PEAK 1.000000
    INDEX 01 00:00:00
    FILE "09 - Windows.flac" WAVE
    TRACK 09 AUDIO
    TITLE "Windows"
    PERFORMER "AWOLNATION"
    ISRC USP6L1400291
    FLAGS DCP
    REM REPLAYGAIN_TRACK_GAIN -9.78 dB
    REM REPLAYGAIN_TRACK_PEAK 1.000000
    INDEX 01 00:00:00
    FILE "10 - Holy Roller.flac" WAVE
    TRACK 10 AUDIO
    TITLE "Holy Roller"
    PERFORMER "AWOLNATION"
    ISRC USP6L1400293
    FLAGS DCP
    REM REPLAYGAIN_TRACK_GAIN -7.26 dB
    REM REPLAYGAIN_TRACK_PEAK 1.000000
    INDEX 01 00:00:00
    FILE "11 - Woman Woman.flac" WAVE
    TRACK 11 AUDIO
    TITLE "Woman Woman"
    PERFORMER "AWOLNATION"
    ISRC USP6L1400295
    FLAGS DCP
    REM REPLAYGAIN_TRACK_GAIN -9.47 dB
    REM REPLAYGAIN_TRACK_PEAK 1.000000
    INDEX 01 00:00:00
    FILE "12 - Lie Love Live Love.flac" WAVE
    TRACK 12 AUDIO
    TITLE "Lie Love Live Love"
    PERFORMER "AWOLNATION"
    ISRC USP6L1400296
    FLAGS DCP
    REM REPLAYGAIN_TRACK_GAIN -9.04 dB
    REM REPLAYGAIN_TRACK_PEAK 1.000000
    INDEX 01 00:00:00
    FILE "13 - Like People, Like Plastic.flac" WAVE
    TRACK 13 AUDIO
    TITLE "Like People, Like Plastic"
    PERFORMER "AWOLNATION"
    ISRC USP6L1400297
    FLAGS DCP
    REM REPLAYGAIN_TRACK_GAIN -9.75 dB
    REM REPLAYGAIN_TRACK_PEAK 1.000000
    INDEX 01 00:00:00
    FILE "14 - Drinking Lightning.flac" WAVE
    TRACK 14 AUDIO
    TITLE "Drinking Lightning"
    PERFORMER "AWOLNATION"
    ISRC USP6L1400298
    FLAGS DCP
    REM REPLAYGAIN_TRACK_GAIN -8.14 dB
    REM REPLAYGAIN_TRACK_PEAK 1.000000
    INDEX 01 00:00:00

    ※ Время раздачи: До 5 сидов ※

    Run Awolnation Скачать Альбом

    Найдено 68 файлов по запросу «run awolnation скачать альбом »

    Run Awolnation Скачать Альбом

    Почему так случилось? Возможно, автоматические запросы принадлежат не вам, а другому пользователю, выходящему в сеть с одного с вами IP-адреса. Вам необходимо один раз ввести символы в форму, после чего мы запомним вас и сможем отличать от других пользователей, выходящих с данного IP. В этом случае страница с капчей не будет беспокоить вас довольно долго. Возможно, в вашем браузере установлены dewar kids скачать приложение дополнения, которые могут задавать автоматические запросы к поиску. В этом случае рекомендуем вам отключить их. Также возможно, что ваш компьютер заражен вирусной программой, использующей его для сбора информации. Может быть, вам стоит проверить систему на наличие вирусов, например, антивирусной cc фотошоп скачать торрент утилитой CureIt от «Dr.Web». Если у вас возникли проблемы телохранитель 1992 торрент или вы хотите задать вопрос нашей службе поддержки, пожалуйста, воспользуйтесь формой обратной связи.

    67006 статей по запросу «run awolnation скачать альбом »

    Run — AWOLNATION. Слушать онлайн на Яндекс.Музыке

    Run — AWOLNATION. Открывайте. Жанры. Подборки. Радио · Войти. Run — AWOLNATION. Альбом. Run. Исполнитель: AWOLNATION. 2015 Red Bull.

    AWOLNATION | ВКонтакте

    последнее 17 дек в 13:15 · Когда вы в первый раз услышали Awolnation и ваши впечатления). 13 июл 2013 ? 127 сообщений, последнее 16 янв в 20:15 · альбомы. 3:14. AWOLNATION–Run. 3:37. AWOLNATION–Windows. 3:35.

    Run by AWOLNATION on Apple Music

    Mar 17, 2015. Listen to songs from the album Run, including "Run", "Fat Face", "Hollow. To preview and buy music from Run by AWOLNATION, download.

    Awolnation | Home

    Run Album. Click below to download RUN (Beautiful Things) for free! Download · Run Bundle. Order a bundle: T-Shirt, Vinyl, CD, Hoodie, Digital Download.

    Run (Awolnation album) - Wikipedia

    Run is the second studio album by American electronic rock band Awolnation, released on. Print/export. Create a book · Download as PDF · Printable version.